22.Chaser.(2018).WEBRip.1080p.AC3.x264-EVO

Encodes in the resolutions 720p, 810p and 1080p, and in irregular HD resolutions, from non-retail (WEB or HDTV) sources, with one or more English audio tracks only. This section does not include animated or TV/documentary films, it does however include black & white movies.
Post Reply
bjorn j
Donator
Donator
Posts: 2792
Joined: Wed Jan 07, 2009 1:49 pm
Has thanked: 44 times
Been thanked: 6522 times

22.Chaser.(2018).WEBRip.1080p.AC3.x264-EVO

Post by bjorn j » Wed Oct 10, 2018 5:08 pm

Image

http://www.IMDb.com/title/tt5130442/
Genres: Crime , Drama

One of the city's last decent tow truck drivers risks everything on a desperate quest to become king of the road and provide for his struggling family.

Code: Select all

Format                                   : Matroska
File size                                : 3.39 GiB
Duration                                 : 1 h 26 min
Overall bit rate                         : 5 581 kb/s

Video
ID                                       : 2
Format                                   : AVC
Format/Info                              : Advanced Video Codec
Format profile                           : [email protected]
Format settings                          : CABAC / 4 Ref Frames
Format settings, CABAC                   : Yes
Format settings, RefFrames               : 4 frames
Codec ID                                 : V_MPEG4/ISO/AVC
Duration                                 : 1 h 26 min
Bit rate                                 : 5 086 kb/s
Width                                    : 1 920 pixels
Height                                   : 1 080 pixels
Display aspect ratio                     : 16:9
Frame rate mode                          : Constant
Frame rate                               : 23.976 FPS
Color space                              : YUV
Chroma subsampling                       : 4:2:0
Bit depth                                : 8 bits
Scan type                                : Progressive
Bits/(Pixel*Frame)                       : 0.102
Stream size                              : 3.09 GiB (91%)
Language                                 : English
Default                                  : Yes
Forced                                   : No
Color range                              : Limited
Color primaries                          : BT.709
Transfer characteristics                 : BT.709
Matrix coefficients                      : BT.709

Audio
ID                                       : 1
Format                                   : AC-3
Format/Info                              : Audio Coding 3
Commercial name                          : Dolby Digital
Codec ID                                 : A_AC3
Duration                                 : 1 h 26 min
Bit rate mode                            : Constant
Bit rate                                 : 384 kb/s
Channel(s)                               : 6 channels
Channel layout                           : L R C LFE Ls Rs
Sampling rate                            : 48.0 kHz
Frame rate                               : 31.250 FPS (1536 SPF)
Bit depth                                : 16 bits
Compression mode                         : Lossy
Stream size                              : 239 MiB (7%)
Language                                 : English
Service kind                             : Complete Main
Default                                  : Yes
Forced                                   : No

Menu
00:00:00.000                             : en:Chapter 01
00:08:34.000                             : en:Chapter 02
00:20:11.000                             : en:Chapter 03
00:28:32.000                             : en:Chapter 04
00:37:02.000                             : en:Chapter 05
00:45:48.000                             : en:Chapter 06
00:54:43.000                             : en:Chapter 07
01:04:13.000                             : en:Chapter 08
01:15:01.000                             : en:Chapter 09
01:21:46.000                             : en:Chapter 10
Image

22.Chaser.2018.1080p.WEB-DL.H264.AC3-EVO.mkv  [3.39 Gb]

Post Reply

Return to “Non-Retail HD (720p, 810p, 1080p)”